#TITLE:我的果汁分你一半;
#SUBTITLE:;
#ARTIST:花儿乐队;
#TITLETRANSLIT:;
#SUBTITLETRANSLIT:;
#ARTISTTRANSLIT:;
#CREDIT:;
#BANNER:ҵĹ֭һ-log.jpg;
#BACKGROUND:ҵĹ֭һ.jpg;
#LYRICSPATH:;
#CDTITLE:&.png;
#MUSIC:ҵĹ֭һ.mp3;
#OFFSET:-0.020;
#SAMPLESTART:100.000;
#SAMPLELENGTH:12.000;
#SELECTABLE:YES;
#BPMS:0.000=96.000;
#STOPS:;
#BGCHANGES:;
// cache tags:
#FIRSTBEAT:19.500;
#LASTBEAT:248.000;
#SONGFILENAME:Songs/lan sky/ҵĹ֭һ/ҵĹ֭һ.sm;
#HASMUSIC:1;
#HASBANNER:1;
#MUSICLENGTH:154.661;
// end cache tags

//---------------dance-single - 标准----------------
#NOTES:
     dance-single:
     标准:
     Hard:
     8:
     0.744,0.862,1.000,0.006,0.508,581.000,194.000,1.000,0.000,29.000:


0000
0000
0000
0000
,
0000
0000
0000
0000
,
0000
0000
0000
0000
,
0000
0000
0000
0000
,
0000
0000
0000
0000
0000
0000
0000
0000
0000
0000
0000
0000
0000
0000
0010
0100
,
1001
0010
0100
0010
1001
0010
0010
0100
1001
0100
0001
0010
1001
0100
0010
0001
,
1010
0010
0100
0010
1100
0100
0010
0100
1011
0000
0000
0000
1010
0000
0100
0010
,
0101
0010
0100
0001
1100
0010
0001
0010
0101
0010
0100
1000
0110
0001
0010
0001
,
0110
0000
0000
1000
0000
0000
0100
0000
0000
0010
0000
0000
0101
0000
0000
0010
0000
0000
1000
0000
0000
0010
0000
0000
0101
0000
0000
0000
1000
0000
1000
0000
1000
0000
1000
0000
1101
0000
0000
0000
0000
0000
0010
0000
0000
0000
0000
0000
,
1010
0100
1010
0010
0101
0010
0110
0010
,
1100
0100
0011
0010
1010
0010
1001
0010
,
0101
1000
0110
0001
0110
0010
1100
0010
,
0011
0000
0011
0000
0011
1000
0100
0010
1000
0100
0010
0001
1000
0100
0010
0001
,
1010
0100
0011
0100
0101
0010
1100
0100
,
0011
0010
0101
0100
1001
0010
0110
0010
,
0101
0010
1001
0010
0101
0010
1010
0100
,
1100
0000
0000
0001
0010
0100
1000
0100
0010
0001
0010
0100
1010
0000
1010
0000
,
0010
0001
0010
0001
0100
0000
0100
0000
0100
0010
0100
1000
0000
0000
1000
0000
,
0100
0000
0000
0010
0100
0001
1000
0010
0100
0000
1010
0000
1010
0000
0000
0000
,
1000
0100
0010
0001
0100
0000
0001
0000
1000
0010
0100
0010
0100
0000
1000
0000
,
1000
0000
0000
0010
0001
0100
1000
0001
0100
0000
0101
0000
0101
0000
0000
0000
,
0001
0100
0010
0100
0010
0000
0001
0000
0010
0100
0010
0100
1000
0000
0100
0000
,
0100
0000
0000
0010
0100
1000
0100
0010
0100
0000
1010
0000
1010
0000
0000
0000
,
0100
1000
0010
0100
1000
0000
0010
0000
1000
0100
1000
0100
0010
0000
0001
0000
,
1000
0000
0000
0001
0010
1000
0100
0010
0001
0000
1100
0000
1100
0000
0010
0000
,
0110
1000
0110
0001
0110
0010
0101
0100
,
1010
0010
0101
0010
1001
0010
0110
0100
,
1001
0010
0101
0010
1010
0100
0101
0010
,
1100
0000
0011
0000
0011
0100
1000
0100
1000
0010
0001
0010
0001
0000
0110
0000
,
1011
0110
1101
0110
1011
1100
0111
1010
,
0111
0110
1101
0110
0111
1100
0111
0011
,
1101
0011
1011
1010
0111
0110
1101
0011
,
1110
0000
0001
0000
0001
0000
1000
0100
1000
0100
0010
0001
0011
0000
1100
0010
,
1000
0100
1000
0100
1000
0100
1000
0100
0010
0001
0010
0001
0010
0001
1000
0100
,
1000
0100
1000
0100
1000
0100
1000
0100
0101
0000
1010
0000
1010
0000
0100
0010
,
1000
0100
1000
0100
1000
0100
1000
0100
0010
0001
0010
0001
0010
0001
0010
0001
,
1000
0100
1000
0100
1000
0100
1000
0100
1010
0000
1100
0000
1100
0000
0010
0001
,
0110
1000
0100
0010
0101
0010
1000
0100
0101
0010
0001
0100
1010
0100
0010
0001
,
1010
0100
0010
1000
0110
1000
0100
0010
1100
0000
1100
0000
1100
0000
0010
1000
,
0110
0001
0010
0100
1100
0010
0001
0100
0011
1000
0100
1000
0101
0010
1000
0010
,
0101
1000
0100
0010
0101
0010
1000
0010
0101
0000
1010
0000
1010
0000
0100
0000
,
1000
0000
0000
0100
0000
0000
0100
0000
0001
0000
0000
0000
0010
0000
0100
0000
,
1000
0000
0000
1000
0000
0000
0100
0000
0010
0000
0100
0000
0010
0000
0001
0000
,
0100
0000
0000
0100
0000
0000
1000
0000
0000
0000
0000
0000
0010
0000
0000
0000
,
0100
0000
0000
0100
0000
0000
1000
0000
1000
0100
0010
0001
0010
0000
0100
0000
,
1000
0000
0000
0100
0000
0000
0100
0000
0001
0000
0000
0000
0010
0000
0100
0000
,
1000
0000
0000
1000
0000
0000
0100
0000
0010
0000
0100
0000
0010
0000
0001
0000
,
0100
0000
0000
0100
0000
0000
1000
0000
0000
0000
0000
0000
0010
0000
0000
0000
,
0100
0000
0000
0100
0000
0000
1000
0000
1000
0100
0010
0001
0010
0000
0100
0000
,
1110
0110
1101
0110
0111
1100
1101
0110
,
1101
0110
1011
0011
1110
0110
1011
0101
,
1101
1010
1011
0110
1011
1001
1011
0110
,
1101
0000
0110
0000
1011
1000
0100
1000
0100
0010
0001
0100
0010
0001
0100
0000
,
1010
0100
0101
0010
1100
0010
0110
0100
,
1100
0010
0101
0010
1010
0010
0101
0010
,
1100
0010
0101
1000
0110
0010
1001
0010
,
0110
0000
0110
0000
0110
0000
1000
0100
1000
0100
0010
0001
1100
0000
1100
0000
,
1100
0011
0110
1100
0101
1010
0101
0110
,
1001
0110
1010
0101
0110
1010
0101
0110
,
0101
0011
1100
0011
0110
0101
1010
0101
,
1010
0000
0101
0000
0110
1000
0100
1000
0100
0010
0001
0000
1100
0000
1100
0000
,
2000
0000
0100
0010
0100
0010
0001
0010
0100
0010
0001
0100
0010
0001
0100
0010
,
3001
0000
0000
0000
;
